osu file format v14

[General]
AudioFilename: World Of Warcraft-the dawn.mp3
AudioLeadIn: 1500
PreviewTime: 96204
Countdown: 0
SampleSet: None
StackLeniency: 0.7
Mode: 0
LetterboxInBreaks: 0
WidescreenStoryboard: 0

[Editor]
DistanceSpacing: 1.3
BeatDivisor: 4
GridSize: 8
TimelineZoom: 1

[Metadata]
Title:The Dawn
TitleUnicode:The Dawn
Artist:Dreamtale
ArtistUnicode:Dreamtale
Creator:384059043
Version:Superior
Source:
Tags:Beyond Reality Hans Zimmer The Rock Power Metal
BeatmapID:340484
BeatmapSetID:135972

[Difficulty]
HPDrainRate:6
CircleSize:4
OverallDifficulty:8
ApproachRate:8
SliderMultiplier:2.4
SliderTickRate:2

[Events]
//Background and Video events
0,0,"BG.jpg",0,0
//Break Periods
//Storyboard Layer 0 (Background)
//Storyboard Layer 1 (Fail)
//Storyboard Layer 2 (Pass)
//Storyboard Layer 3 (Foreground)
//Storyboard Sound Samples
//Background Colour Transformations
3,100,163,162,255

[TimingPoints]
413,749.063670411985,4,2,0,40,1,0
24383,-100,4,2,0,40,0,0
35618,759.493670886076,4,2,0,40,1,0
36377,750.187546886722,4,2,0,40,1,0
44629,-111.111111111111,4,2,0,50,0,0
45394,754.716981132075,4,1,2,75,1,0
45394,-111.111111111111,4,2,0,75,0,0
47658,-200,4,2,0,75,0,0
48035,-100,4,2,0,60,0,0
48395,750.187546886722,4,2,0,75,1,1
48395,-83.3333333333333,4,2,0,75,0,1
48582,-83.3333333333333,4,2,0,75,0,0
55146,-90.9090909090909,4,2,0,75,0,0
55896,-83.3333333333333,4,2,0,75,0,0
58897,-90.9090909090909,4,2,0,75,0,0
59272,-83.3333333333333,4,2,0,75,0,0
69400,-64.9350649350649,4,2,0,75,0,0
69962,-83.3333333333333,4,2,0,75,0,0
70900,-100,4,2,0,80,0,0
71650,-76.9230769230769,4,2,0,80,0,0
72401,-80,4,3,0,80,0,1
72588,-80,4,3,0,80,0,0
93406,-80,4,2,0,80,0,0
96407,-80,4,1,2,80,0,1
116647,740.740740740741,4,1,2,80,1,1
117387,857.142857142857,4,2,1,60,1,1
120815,-100,4,2,0,40,0,1
121672,-100,4,2,0,20,0,1
122101,-100,4,2,0,10,0,0

[Colours]
Combo1 : 255,128,0
Combo2 : 0,128,192
Combo3 : 0,0,255
Combo4 : 200,200,255
Combo5 : 0,64,128
Combo6 : 255,0,0

[HitObjects]
64,136,24383,6,0,B|125:145|185:144,1,120,2|0,0:0|0:0,0:0:0:0:
256,48,25132,1,2,0:0:0:0:
328,144,25506,2,0,B|337:176|336:208,1,60,2|2,0:0|0:0,0:0:0:0:
328,144,25881,2,0,B|389:144|449:136,1,120,2|0,0:0|0:0,0:0:0:0:
368,48,26630,1,0,0:0:0:0:
256,128,27004,2,0,L|256:192,1,60,2|2,0:0|0:0,0:0:0:0:
216,264,27379,6,0,B|175:287|130:294|87:288,1,120,2|0,0:0|0:0,0:0:0:0:
32,192,28128,1,0,0:0:0:0:
216,264,28502,2,0,L|240:320,1,60,2|2,0:0|0:0,0:0:0:0:
320,296,28877,2,0,B|354:326|399:336|440:328,1,120,2|0,0:0|0:0,0:0:0:0:
488,272,29439,1,0,0:0:0:0:
472,136,29626,2,0,L|456:200,1,60,2|2,0:0|0:0,0:0:0:0:
424,72,30001,2,0,L|408:8,1,60,2|2,0:0|0:0,0:0:0:0:
472,136,30375,6,0,B|436:163|386:155|360:121,1,120,2|0,0:0|0:0,0:0:0:0:
312,64,30937,1,0,0:0:0:0:
176,88,31124,2,0,L|240:96,1,60,2|2,0:0|0:0,0:0:0:0:
112,176,31499,2,0,L|48:184,1,60,2|2,0:0|0:0,0:0:0:0:
112,256,31873,2,0,B|157:256|192:220|192:177,1,120,2|0,0:0|0:0,0:0:0:0:
176,88,32435,1,0,0:0:0:0:
112,256,32622,2,0,L|232:280,1,120,2|2,0:0|0:0,0:0:0:0:
312,264,33184,1,2,0:0:0:0:
512,272,33371,6,0,L|394:248,1,120,2|0,0:0|0:0,0:0:0:0:
336,176,33933,1,0,0:0:0:0:
296,48,34120,2,0,L|304:112,1,60,2|0,0:0|0:0,0:0:0:0:
216,48,34495,2,0,L|208:112,1,60,2|2,0:0|0:0,0:0:0:0:
176,176,34869,2,0,B|213:210|217:264|193:303,1,120,2|0,0:0|0:0,0:0:0:0:
104,336,35431,1,0,0:0:0:0:
0,272,35618,2,0,L|117:248,1,120,2|2,0:0|0:0,0:0:0:0:
394,248,36377,38,0,L|512:272,1,120,2|0,0:0|0:0,0:0:0:0:
432,344,36939,1,0,0:0:0:0:
328,328,37127,2,0,B|307:316|296:294|296:272,1,60,2|0,0:0|0:0,0:0:0:0:
319,200,37502,2,0,B|317:179|305:162|288:152,1,60,2|2,0:0|0:0,0:0:0:0:
128,240,37877,2,0,L|248:216,1,120,2|0,0:0|0:0,0:0:0:0:
208,144,38440,1,0,0:0:0:0:
80,176,38627,2,0,B|44:202|37:253|64:288,1,120,2|2,0:0|0:0,0:0:0:0:
120,344,39190,1,2,0:0:0:0:
200,304,39377,6,0,B|234:278|280:279|311:303,1,120,2|0,0:0|0:0,0:0:0:0:
392,344,39940,1,0,0:0:0:0:
451,283,40127,2,0,B|475:247|465:201|433:176,1,120,2|2,0:0|0:0,0:0:0:0:
384,240,40690,1,2,0:0:0:0:
352,168,40878,2,0,L|232:160,1,120,2|0,0:0|0:0,0:0:0:0:
152,184,41440,1,0,0:0:0:0:
80,152,41628,2,0,B|61:190|76:235|111:256,1,120,2|2,0:0|0:0,0:0:0:0:
399,256,42378,6,0,B|436:235|449:189|432:153,1,120,2|2,0:0|0:0,0:0:0:0:
208,120,43128,2,0,B|177:171|223:241|303:225|327:166|307:125,1,240,2|2,0:0|0:0,0:0:0:0:
256,8,44253,1,2,0:0:0:0:
208,120,44629,2,0,B|234:148|278:147|304:120,1,107.999996704102,2|2,0:0|0:0,0:0:0:0:
320,136,45394,5,4,0:0:0:0:
200,128,45582,1,8,3:0:0:0:
192,248,45771,1,8,3:0:0:0:
312,256,45960,1,8,3:0:0:0:
256,192,46148,1,8,3:0:0:0:
352,107,46526,37,4,0:0:0:0:
172,95,46714,1,8,3:0:0:0:
160,276,46903,1,8,3:0:0:0:
340,287,47092,1,8,3:0:0:0:
256,192,47280,1,8,3:0:0:0:
128,128,47658,6,4,B|121:149|128:171|144:184,1,60,4|0,0:0|0:0,0:0:0:0:
208,128,48395,6,0,B|208:84|176:47|132:40|97:55,1,143.999995605469,4|0,0:0|0:0,0:0:0:0:
48,104,48957,1,0,0:0:0:0:
128,128,49145,2,0,B|144:224|144:224|176:272,1,143.999995605469,0|2,1:0|0:0,0:0:0:0:
256,304,49707,1,2,0:0:0:0:
342,262,49895,6,0,B|368:224|368:224|384:128,1,143.999995605469,2|0,0:0|0:0,0:0:0:0:
464,104,50458,1,0,0:0:0:0:
402,51,50645,2,0,B|363:41|324:58|304:92|304:127,1,143.999995605469,0|2,1:0|0:0,0:0:0:0:
256,200,51208,1,2,0:0:0:0:
184,240,51395,38,0,L|40:272,1,143.999995605469,2|0,0:0|0:0,0:0:0:0:
8,192,51958,1,0,0:0:0:0:
72,136,52145,2,0,B|168:112|168:112|208:64,1,143.999995605469,0|2,1:0|0:0,0:0:0:0:
256,144,52708,1,2,0:0:0:0:
315,77,52896,6,0,B|344:112|344:112|440:136,1,143.999995605469,2|0,0:0|0:0,0:0:0:0:
472,208,53458,1,0,0:0:0:0:
368,280,53646,1,0,1:0:0:0:
256,224,53833,1,0,0:0:0:0:
144,280,54021,2,0,B|117:292|88:291|64:280,1,71.9999978027344,2|0,0:0|0:0,0:0:0:0:
72,32,54396,6,0,L|104:176,1,143.999995605469,4|0,0:0|0:0,0:0:0:0:
152,240,54959,1,0,0:0:0:0:
224,200,55146,2,0,B|245:189|269:190|288:200,1,66.0000020141602,0|2,1:0|0:0,0:0:0:0:
287,280,55521,2,0,B|266:290|243:289|224:280,1,66.0000020141602,2|2,0:0|0:0,0:0:0:0:
360,240,55896,5,2,0:0:0:0:
360,240,56271,1,0,0:0:0:0:
440,248,56459,1,0,0:0:0:0:
408,172,56647,2,0,B|404:120|416:71|441:31,1,143.999995605469,0|2,1:0|0:0,0:0:0:0:
256,96,57209,1,2,0:0:0:0:
72,33,57397,38,0,B|99:77|108:126|103:173,1,143.999995605469,2|0,0:0|0:0,0:0:0:0:
128,320,57959,2,0,L|200:336,1,71.9999978027344,0|0,0:0|1:0,0:0:0:0:
384,320,58334,2,0,L|312:336,1,71.9999978027344,0|2,0:0|0:0,0:0:0:0:
256,272,58710,1,0,1:0:0:0:
288,200,58897,6,0,B|267:189|243:190|224:200,1,66.0000020141602,0|8,1:1|3:3,0:0:0:0:
152,248,59272,1,8,3:0:0:0:
144,160,59460,1,8,3:0:0:0:
200,328,59647,5,8,3:0:0:0:
152,248,59835,1,8,3:0:0:0:
144,160,60022,1,8,3:0:0:0:
96,80,60210,1,8,3:0:0:0:
232,152,60398,6,0,B|236:203|279:240|327:240,1,143.999995605469,4|0,0:0|0:0,0:0:0:0:
392,192,60960,1,0,0:0:0:0:
328,144,61148,2,0,B|277:143|235:182|232:231,1,143.999995605469,0|2,1:0|0:0,0:0:0:0:
368,336,61710,1,2,0:0:0:0:
200,320,61898,38,0,L|56:288,1,143.999995605469,2|0,0:0|0:0,0:0:0:0:
96,208,62461,2,0,L|168:224,1,71.9999978027344,0|0,0:0|1:0,0:0:0:0:
345,223,63023,2,0,L|416:208,1,71.9999978027344,2|2,0:0|0:0,0:0:0:0:
452,288,63398,6,0,L|312:320,1,143.999995605469,2|0,0:0|0:0,0:0:0:0:
256,256,63961,1,0,0:0:0:0:
208,184,64148,2,0,L|200:112,1,71.9999978027344,0|0,1:0|0:0,0:0:0:0:
304,128,64524,2,0,L|312:56,1,71.9999978027344,2|2,0:0|0:0,0:0:0:0:
296,232,64899,6,0,B|270:282|208:299|161:272,1,143.999995605469,2|0,0:0|0:0,0:0:0:0:
80,120,65649,2,0,L|208:184,1,143.999995605469,0|2,1:0|0:0,0:0:0:0:
296,232,66211,1,2,0:0:0:0:
432,200,66399,6,0,L|304:136,1,143.999995605469,6|2,0:0|0:0,0:0:0:0:
483,138,67149,2,0,B|516:168|523:216|502:255|468:273,1,143.999995605469,0|2,1:0|0:0,0:0:0:0:
432,336,67712,2,0,L|360:352,1,71.9999978027344,2|2,0:0|0:0,0:0:0:0:
150,351,68274,2,0,L|80:336,1,71.9999978027344,2|2,0:0|0:0,0:0:0:0:
31,263,68650,2,0,B|0:239|-11:197|2:161|28:138,1,143.999995605469,0|2,1:0|0:0,0:0:0:0:
96,200,69212,1,2,0:0:0:0:
168,160,69400,38,0,B|216:160|256:184|256:184|296:160|344:160,1,184.799996334229,2|0,0:0|0:0,0:0:0:0:
416,200,69962,1,0,0:0:0:0:
480,136,70150,2,0,B|519:170|517:230|477:262,1,143.999995605469,0|2,1:0|0:0,0:0:0:0:
328,320,70713,1,0,1:0:0:0:
192,304,70900,6,8,L|128:296,1,60,0|0,0:0|0:0,3:0:0:0:
28,144,71275,2,8,L|88:152,1,60,0|0,0:0|0:0,3:0:0:0:
336,256,71650,6,8,L|223:242,1,77.9999964294435,0|0,0:0|0:0,3:0:0:0:
152,96,72025,2,8,L|229:105,1,77.9999964294435,0|0,0:0|0:0,3:0:0:0:
368,176,72401,6,0,B|412:194|436:240|426:288|397:317,1,150,4|0,2:0|0:0,0:0:0:0:
336,256,72963,2,0,L|264:280,1,75,0|8,0:0|0:0,0:0:0:0:
176,256,73338,1,0,0:0:0:0:
96,232,73526,2,0,L|24:256,1,75,,,0:0:0:0:
152,168,73901,38,0,B|160:72|160:72|200:112,1,150,,,0:0:0:0:
256,224,74464,1,0,0:0:0:0:
400,264,74651,2,0,B|384:241|361:228|336:224,1,75,8|0,0:0|0:0,0:0:0:0:
288,304,75026,2,0,B|304:327|327:340|352:344,1,75,,,0:0:0:0:
256,224,75401,6,0,B|217:240|193:279|196:321|216:351,1,150,,,0:0:0:0:
376,336,75964,1,0,0:0:0:0:
288,304,76151,2,0,L|136:272,1,150,8|0,0:0|0:0,0:0:0:0:
64,232,76714,1,0,0:0:0:0:
128,168,76902,6,0,B|150:150|175:139|201:136,1,75,,,0:0:0:0:
280,64,77277,2,0,B|298:86|309:111|312:137,1,75,,,0:0:0:0:
384,216,77652,2,0,B|362:234|337:245|311:248,1,75,8|0,0:0|0:0,0:0:0:0:
232,320,78027,2,0,B|214:298|203:273|200:247,1,75,4|0,1:0|0:0,0:0:0:0:
280,64,78402,6,0,B|314:107|320:161|304:208,1,150,4|0,2:0|0:0,0:0:0:0:
232,320,78965,1,0,0:0:0:0:
16,256,79152,2,0,L|168:264,1,150,8|0,0:0|0:0,0:0:0:0:
256,192,79715,1,0,0:0:0:0:
346,263,79902,38,0,L|496:256,1,150,,,0:0:0:0:
416,128,80465,1,0,0:0:0:0:
286,201,80653,2,0,B|250:241|255:302|295:336,1,150,8|0,0:0|0:0,0:0:0:0:
464,296,81215,1,0,0:0:0:0:
368,328,81403,6,0,L|216:344,1,150,,,0:0:0:0:
128,320,81965,2,0,B|106:302|98:274|104:248,1,75,0|8,0:0|0:0,0:0:0:0:
128,112,82340,1,0,0:0:0:0:
240,192,82528,2,0,L|320:208,1,75,,,0:0:0:0:
432,280,82903,5,8,0:0:0:0:
344,312,83091,1,8,0:0:0:0:
432,280,83278,1,8,0:0:0:0:
344,312,83466,1,8,0:0:0:0:
256,280,83653,1,8,0:0:0:0:
240,192,83841,1,8,0:0:0:0:
312,136,84028,1,4,1:0:0:0:
328,224,84216,1,8,0:0:0:0:
256,280,84404,6,0,B|211:290|166:267|147:225|152:185,1,150,4|0,2:0|0:0,0:0:0:0:
176,40,84966,1,0,0:0:0:0:
240,192,85154,2,0,B|235:250|184:291|129:288,1,150,8|0,0:0|0:0,0:0:0:0:
56,272,85716,1,0,0:0:0:0:
240,344,85904,38,0,B|320:352|320:352|376:312,1,150,,,0:0:0:0:
472,192,86467,1,0,0:0:0:0:
376,72,86654,2,0,B|320:32|320:32|240:40,1,150,8|0,0:0|0:0,0:0:0:0:
112,80,87217,1,0,0:0:0:0:
40,192,87404,6,0,B|128:216|128:216|176:256,1,150,,,0:0:0:0:
256,336,87967,1,0,0:0:0:0:
338,253,88154,2,0,B|384:216|384:216|472:192,1,150,8|0,0:0|0:0,0:0:0:0:
448,344,88717,1,0,0:0:0:0:
256,336,88905,5,0,0:0:0:0:
256,336,89280,1,0,0:0:0:0:
373,351,89467,2,0,L|448:344,1,75,0|8,0:0|0:0,0:0:0:0:
256,336,89842,1,0,0:0:0:0:
138,351,90030,2,0,L|64:344,1,75,4|0,1:0|0:0,0:0:0:0:
40,232,90405,6,0,B|95:250|152:229|183:185,1,150,4|0,2:0|0:0,0:0:0:0:
88,136,90968,2,0,L|112:56,1,75,0|8,0:0|0:0,0:0:0:0:
402,64,91530,2,0,L|424:136,1,75,,,0:0:0:0:
472,231,91905,2,0,B|417:250|359:229|329:185,1,150,,,0:0:0:0:
256,112,92468,1,0,0:0:0:0:
176,192,92656,37,8,0:0:0:0:
256,272,92843,1,0,0:0:0:0:
336,192,93031,1,0,0:0:0:0:
256,192,93218,1,0,0:0:0:0:
192,328,93406,5,4,0:0:0:0:
392,256,93593,1,8,3:0:0:0:
320,56,93781,1,8,3:0:0:0:
120,128,93968,1,8,3:0:0:0:
256,192,94156,1,8,3:0:0:0:
320,328,94531,5,4,0:0:0:0:
120,256,94719,1,8,3:0:0:0:
192,56,94906,1,8,3:0:0:0:
392,128,95094,1,8,3:0:0:0:
256,192,95281,1,8,3:0:0:0:
120,256,95469,2,0,B|76:265|32:264,1,75,0|4,0:0|0:0,0:0:0:0:
379,277,95844,2,0,B|408:312|430:349,1,75,0|0,0:0|0:0,0:0:0:0:
256,192,96219,1,0,0:0:0:0:
24,152,96407,6,2,L|176:136,1,150,6|0,0:0|0:0,0:0:0:0:
256,48,96969,1,0,0:0:0:0:
338,136,97157,2,0,B|352:162|356:190|352:217,1,75,10|0,0:0|0:0,0:0:0:0:
272,360,97532,2,2,B|258:337|253:311|256:286,1,75,0|0,0:0|0:0,0:0:0:0:
256,176,97907,38,2,L|104:200,1,150,2|0,0:0|0:0,0:0:0:0:
320,256,98470,1,0,0:0:0:0:
432,288,98657,2,0,L|456:216,1,75,10|0,0:0|0:0,0:0:0:0:
360,160,99032,2,2,L|336:88,1,75,0|0,0:0|0:0,0:0:0:0:
288,192,99407,6,2,B|307:232|351:252|395:243|423:217,1,150,2|0,0:0|0:0,0:0:0:0:
464,80,99970,1,0,0:0:0:0:
312,112,100157,2,2,B|269:103|227:123|206:161|208:199,1,150,10|0,0:0|0:0,0:0:0:0:
224,304,100720,1,0,0:0:0:0:
304,240,100908,6,2,L|384:248,1,75,2|0,0:0|0:0,0:0:0:0:
480,272,101283,2,2,B|485:310|472:346,1,75,2|0,0:0|0:0,0:0:0:0:
280,312,101658,2,2,B|236:295|214:247|229:201|263:177,1,150,10|4,0:0|1:1,0:0:0:0:
384,104,102220,2,2,L|304:120,1,75,0|6,0:0|0:0,0:0:0:0:
128,104,102783,6,0,L|208:120,1,75,,,0:0:0:0:
152,216,103158,2,2,L|207:275,1,75,10|0,0:0|0:0,0:0:0:0:
96,304,103533,2,2,L|105:385,1,75,2|0,0:0|0:0,0:0:0:0:
320,272,103908,38,2,B|362:276|399:246|404:201|385:169,1,150,2|0,0:0|0:0,0:0:0:0:
256,96,104471,1,0,0:0:0:0:
127,168,104659,2,2,B|106:204|117:250|154:274|190:272,1,150,10|0,0:0|0:0,0:0:0:0:
256,171,105221,6,0,L|256:96,1,75,0|2,0:0|0:0,0:0:0:0:
152,48,105596,1,0,0:0:0:0:
40,192,105784,2,0,B|28:240|32:288,1,75,,,0:0:0:0:
192,304,106159,6,2,B|216:270|260:259|298:274|319:303,1,150,10|0,0:0|0:0,0:0:0:0:
472,192,106722,1,0,0:0:0:0:
360,48,106909,1,2,0:0:0:0:
256,160,107097,1,0,0:0:0:0:
152,48,107284,5,0,0:0:0:0:
40,192,107472,1,0,0:0:0:0:
144,200,107659,2,0,B|174:181|193:152|200:120,1,75,10|0,0:0|0:0,0:0:0:0:
152,48,108034,2,0,B|122:67|103:96|96:128,1,75,2|0,0:0|0:0,0:0:0:0:
56,296,108410,6,2,B|80:304|80:304|176:288|176:288|200:272,1,150,6|0,0:0|0:0,0:0:0:0:
256,192,108972,1,0,0:0:0:0:
313,111,109160,2,2,B|336:96|336:96|432:80|432:80|456:88,1,150,10|0,0:0|0:0,0:0:0:0:
440,240,109722,1,0,0:0:0:0:
312,312,109910,6,2,B|267:349|203:347|161:313,1,150,2|0,0:0|0:0,0:0:0:0:
80,256,110473,2,2,L|64:176,1,75,0|10,0:0|0:0,0:0:0:0:
96,72,110848,1,0,0:0:0:0:
176,152,111035,2,0,B|198:167|224:172|248:168,1,75,2|0,0:0|0:0,0:0:0:0:
464,120,111410,70,2,L|312:128,1,150,2|0,0:0|0:0,0:0:0:0:
176,152,111973,1,0,0:0:0:0:
264,264,112160,2,2,B|306:273|320:333|270:367|227:348|217:316,1,150,10|0,0:0|0:0,0:0:0:0:
144,256,112723,1,0,0:0:0:0:
296,200,112911,6,2,B|349:222|375:278|363:330,1,150,2|0,0:0|0:0,0:0:0:0:
256,344,113473,1,2,0:0:0:0:
144,336,113661,2,2,L|72:312,1,75,10|0,0:0|0:0,0:0:0:0:
8,104,114036,2,2,L|80:128,1,75,0|0,0:0|0:0,0:0:0:0:
256,112,114411,69,6,0:0:0:0:
256,112,114786,1,0,0:0:0:0:
368,136,114974,1,0,0:0:0:0:
464,192,115161,2,2,B|462:248|426:294|377:312,1,150,10|0,0:0|0:0,0:0:0:0:
272,296,115724,2,2,L|192:280,1,75,0|2,0:0|0:0,0:0:0:0:
8,312,116099,2,0,L|81:326,1,75,0|2,0:0|0:0,0:0:0:0:
200,280,116474,1,0,0:0:0:0:
256,144,116647,6,2,B|240:112|272:64|256:24,1,120,10|2,0:0|0:0,0:0:0:0:
256,144,117387,69,4,0:0:0:0:
256,192,117601,12,0,122101,0:0:0:0:
